Powrót   Forum CDRinfo.pl > Napędy optyczne i nagrywanie CD, DVD, Blu-ray, HD DVD > Audio/Stacjonarne nagrywarki i nośniki CD-R Audio

Audio/Stacjonarne nagrywarki i nośniki CD-R Audio Wszelkie dyskusje poświęcone audio - zgrywanie, kompresja, sprzęt



Witaj Nieznajomy! Zaloguj się lub Zarejestruj

Zarejestrowani użytkownicy mają dostęp do dodatkowych opcji, lepszej wyszukiwarki oraz mniejszej ilości reklam. Rejestracja jest całkowicie darmowa!

Odpowiedz na post
 
Opcje związane z dyskusją Tryby wyświetlania
Stary 28.07.2010, 16:32   #1
Pele144
Stały bywalec ;)
 
Avatar użytkownika Pele144
 
Data rejestracji: 12.06.2007
Lokalizacja: Poznań
Posty: 106
Pele144 zaczyna zdobywać reputację <1 - 49 pkt>
Konwersja DTS-HD na DTS

Mam ścieżkę dźwiękową do filmu w formacie DTS-HD i chcę ją przerobić (pogorszyć) do 'zwykłego' DTS 5.1 1510 Kbps. Ścieżka DTS-HD ma parametry:
Kod:
General
Complete name                    : film.dts
Format                           : DTS
Format/Info                      : Digital Theater Systems
Format profile                   : MA
File size                        : 3.73 GiB

Audio
Format                           : DTS
Format/Info                      : Digital Theater Systems
Format profile                   : MA
Bit rate mode                    : Variable
Channel(s)                       : 6 channels
Channel positions                : Front: L C R, Side: L R, LFE
Sampling rate                    : 48.0 KHz
Bit depth                        : 24 bits
Najpierw programem Tranzcode v0.40, pociąłem tą ścieżkę na 6 wave'ów, z czego każdy waży równo 1.35 GB, co dziwne w sumie 6 kanałów waży więcej niż DTS-HD (8.1 GB > 3.73 GB). Może coś źle zrobiłem, podaję parametry jednego z kanałów:
Kod:
General
Complete name                    : film-C.wav
Format                           : Wave
File size                        : 1.35 GiB
Duration                         : 2h 5mn
Overall bit rate                 : 1 536 Kbps

Audio
Format                           : PCM
Format profile                   : Float
Format settings, Endianness      : Float
Codec ID                         : 3
Codec ID/Hint                    : IEEE 
Duration                         : 2h 5mn
Bit rate mode                    : Constant
Bit rate                         : 1 536 Kbps
Channel(s)                       : 1 channel
Sampling rate                    : 48.0 KHz
Bit depth                        : 32 bits
Stream size                      : 1.35 GiB
Następnie użyłem programu Surcode DVD Pro DTS ENCODER w celu połączenia wave'ów w DTS, jednak po konwersji program ten stworzył plik DTS o rozmiarze jednego z kanałów wav.
Z góry dzięki za pomoc.
__________________
# PlayStation 4 LE U4 CUH-1216B 1TB / # PlayStation 2 v4 SCPH-30003 / # Nokia Lumia 735 WP 8.1 + AData 32 GB
Pele144 jest offline   Odpowiedz cytując ten post

  #ads
CDRinfo.pl
Reklamowiec
 
 
 
Data rejestracji: 29.12.2008
Lokalizacja: Sieć globalna
Wiek: 31
Posty: 1227
 

CDRinfo.pl is online  
Stary 28.07.2010, 16:56   #2
ynsiwy
egipski bóg
 
Avatar użytkownika ynsiwy
 
Data rejestracji: 28.02.2004
Lokalizacja: Gdańsk/Okolice
Posty: 2,935
ynsiwy ma z czego być dumnym <1000 - 1499 pkt>ynsiwy ma z czego być dumnym <1000 - 1499 pkt>ynsiwy ma z czego być dumnym <1000 - 1499 pkt>ynsiwy ma z czego być dumnym <1000 - 1499 pkt>ynsiwy ma z czego być dumnym <1000 - 1499 pkt>ynsiwy ma z czego być dumnym <1000 - 1499 pkt>ynsiwy ma z czego być dumnym <1000 - 1499 pkt>ynsiwy ma z czego być dumnym <1000 - 1499 pkt>ynsiwy ma z czego być dumnym <1000 - 1499 pkt>
a czy jest sens to przerabiać? chyba większość amplitunerów samo odczytuje dts hd jako dts, przynajmniej ja tak mam
ynsiwy jest offline   Odpowiedz cytując ten post
Stary 28.07.2010, 18:46   #3
Arepo
Guru
 
Avatar użytkownika Arepo
 
Data rejestracji: 01.10.2004
Posty: 3,430
Arepo jest wzorem do naśladowania <650 - 999 pkt>Arepo jest wzorem do naśladowania <650 - 999 pkt>Arepo jest wzorem do naśladowania <650 - 999 pkt>Arepo jest wzorem do naśladowania <650 - 999 pkt>Arepo jest wzorem do naśladowania <650 - 999 pkt>Arepo jest wzorem do naśladowania <650 - 999 pkt>
Cytat:
Napisany przez Pele144 Podgląd Wiadomości
Najpierw programem Tranzcode v0.40, pociąłem tą ścieżkę na 6 wave'ów, z czego każdy waży równo 1.35 GB, co dziwne w sumie 6 kanałów waży więcej niż DTS-HD (8.1 GB > 3.73 GB). Może coś źle zrobiłem, podaję parametry jednego z kanałów:
wav-y są nieskompresowane, do tego w 32-bitowej rozdzielczości więc na pewno będą zajmować więcej
Cytat:
Napisany przez Pele144 Podgląd Wiadomości
Następnie użyłem programu Surcode DVD Pro DTS ENCODER w celu połączenia wave'ów w DTS, jednak po konwersji program ten stworzył plik DTS o rozmiarze jednego z kanałów wav.
mniej więcej prawidłowo, DTS ma 1510 kbps, a jeden wav mono w 32 bitach 1536 kbps, więc plik *.dts wyjdzie odrobinę mniejszy niż jeden wav

wygląda, że wszystko jest ok

pozdrawiam
__________________
Lite-On iHBS 212, Pioneer BDR-209EBK
Arepo jest offline   Odpowiedz cytując ten post
Stary 28.07.2010, 20:56   #4
Pele144
Stały bywalec ;)
 
Avatar użytkownika Pele144
 
Data rejestracji: 12.06.2007
Lokalizacja: Poznań
Posty: 106
Pele144 zaczyna zdobywać reputację <1 - 49 pkt>
Cytat:
Napisany przez ynsiwy Podgląd Wiadomości
a czy jest sens to przerabiać? chyba większość amplitunerów samo odczytuje dts hd jako dts, przynajmniej ja tak mam
chcę dodać DTS'a do MKV i zmieścić na DVD9.
Cytat:
Napisany przez Arepo Podgląd Wiadomości
wav-y są nieskompresowane, do tego w 32-bitowej rozdzielczości więc na pewno będą zajmować więcej
mniej więcej prawidłowo, DTS ma 1510 kbps, a jeden wav mono w 32 bitach 1536 kbps, więc plik *.dts wyjdzie odrobinę mniejszy niż jeden wav

wygląda, że wszystko jest ok

pozdrawiam
ok, spróbowałem skonwertować ponownie i media info pokazuje tylko
Kod:
General
Complete name                    : audio.dts
File size                        : 1.35 GiB
dziwnie to wygląda bo w Media Playerze niby się odtwarza i w tymże programie w Properties wygląda to tak:



natomiast przy próbie wrzucenia ściezki dts do tsmuxer'a, program wywala błąd:



może jest jakieś inne narzędzie do łączenia WAV'ów ?
__________________
# PlayStation 4 LE U4 CUH-1216B 1TB / # PlayStation 2 v4 SCPH-30003 / # Nokia Lumia 735 WP 8.1 + AData 32 GB
Pele144 jest offline   Odpowiedz cytując ten post
Stary 28.07.2010, 23:05   #5
Arepo
Guru
 
Avatar użytkownika Arepo
 
Data rejestracji: 01.10.2004
Posty: 3,430
Arepo jest wzorem do naśladowania <650 - 999 pkt>Arepo jest wzorem do naśladowania <650 - 999 pkt>Arepo jest wzorem do naśladowania <650 - 999 pkt>Arepo jest wzorem do naśladowania <650 - 999 pkt>Arepo jest wzorem do naśladowania <650 - 999 pkt>Arepo jest wzorem do naśladowania <650 - 999 pkt>
Faktycznie, sprawdziłem i uzyskiwany DTS zawiera błędy, ale można je łatwo naprawić za pomocą darmowego delaycut. Podaj w input file ścieżkę do utworzonego wcześniej DTS-a i naciśnij przycisk PROCESS. Błędy zostaną naprawione i plik wczyta się bez problemu do tsMuxeR-a .

pozdrawiam
__________________
Lite-On iHBS 212, Pioneer BDR-209EBK
Arepo jest offline   Odpowiedz cytując ten post
Stary 28.07.2010, 23:37   #6
Pele144
Stały bywalec ;)
 
Avatar użytkownika Pele144
 
Data rejestracji: 12.06.2007
Lokalizacja: Poznań
Posty: 106
Pele144 zaczyna zdobywać reputację <1 - 49 pkt>
Cytat:
Napisany przez Arepo Podgląd Wiadomości
Faktycznie, sprawdziłem i uzyskiwany DTS zawiera błędy, ale można je łatwo naprawić za pomocą darmowego delaycut. Podaj w input file ścieżkę do utworzonego wcześniej DTS-a i naciśnij przycisk PROCESS. Błędy zostaną naprawione i plik wczyta się bez problemu do tsMuxeR-a .

pozdrawiam
dzięki za zaangazowanie. wiec tak: wrzuciłem DTS'a do delaycut i oto co z tego wyszło:
Kod:
General
Complete name                    : audio_fixed.dts
Format                           : DTS
Format/Info                      : Digital Theater Systems
File size                        : 1.32 GiB
Duration                         : 2h 5mn
Overall bit rate                 : 1 510 Kbps

Audio
Format                           : DTS
Format/Info                      : Digital Theater Systems
Duration                         : 2h 5mn
Bit rate mode                    : Constant
Bit rate                         : 1 510 Kbps
Channel(s)                       : 6 channels
Channel positions                : Front: L C R, Side: L R, LFE
Sampling rate                    : 48.0 KHz
Bit depth                        : 24 bits
Stream size                      : 1.32 GiB
log z delaycut:
Kod:
[Input info]
Bitrate=1536
Actual rate=1509.750000
Sampling Frec=48000
TotalFrames=717445
Bytesperframe=2013.0000
Filesize=1444216832
FrameDuration= 10.6667
Framespersecond= 93.7500
Duration=02:07:32.746
Channels mode=C+L+R+SL+SR
LFE=LFE: Present
[Target info]
StartFrame=0
EndFrame=717444
NotFixedDelay=  0.0000
Duration=02:07:32.746
====== PROCESSING LOG ======================
Time 00:00:00.010; Frame#= 2. Unsynchronized frame...SKIPPED  35 bytes. Found new synch word
Time 00:00:00.032; Frame#= 4. Unsynchronized frame...SKIPPED  35 bytes. Found new synch word
Time 00:00:00.053; Frame#= 6. Unsynchronized frame...SKIPPED  35 bytes. Found new synch word
Time 00:00:00.074; Frame#= 8. Unsynchronized frame...SKIPPED  35 bytes. Found new synch word
Time 00:00:00.096; Frame#= 10. Unsynchronized frame...SKIPPED  35 bytes. Found new synch word
Time 00:00:00.117; Frame#= 12. Unsynchronized frame...SKIPPED  35 bytes. Found new synch word
Time 00:00:00.138; Frame#= 14. Unsynchronized frame...SKIPPED  35 bytes. Found new synch word
Time 00:00:00.160; Frame#= 16. Unsynchronized frame...SKIPPED  35 bytes. Found new synch word
Time 00:00:00.181; Frame#= 18. Unsynchronized frame...SKIPPED  35 bytes. Found new synch word
Time 00:00:00.202; Frame#= 20. Unsynchronized frame...SKIPPED  35 bytes. Found new synch word
Time 00:00:00.224; Frame#= 22. Unsynchronized frame...SKIPPED  35 bytes. Found new synch word
Time 00:00:00.245; Frame#= 24. Unsynchronized frame...SKIPPED  35 bytes. Found new synch word
Time 00:00:00.266; Frame#= 26. Unsynchronized frame...SKIPPED  35 bytes. Found new synch word
Time 00:00:00.288; Frame#= 28. Unsynchronized frame...SKIPPED  35 bytes. Found new synch word
Time 00:00:00.309; Frame#= 30. Unsynchronized frame...SKIPPED  35 bytes. Found new synch word
Time 00:00:00.330; Frame#= 32. Unsynchronized frame...SKIPPED  35 bytes. Found new synch word
Time 00:00:00.352; Frame#= 34. Unsynchronized frame...SKIPPED  35 bytes. Found new synch word
Time 00:00:00.373; Frame#= 36. Unsynchronized frame...SKIPPED  35 bytes. Found new synch word
Time 00:00:00.394; Frame#= 38. Unsynchronized frame...SKIPPED  35 bytes. Found new synch word
Time 00:00:00.416; Frame#= 40. Unsynchronized frame...SKIPPED  35 bytes. Found new synch word
Time 00:00:00.437; Frame#= 42. Unsynchronized frame...SKIPPED  35 bytes. Found new synch word
Time 00:00:00.458; Frame#= 44. Unsynchronized frame...SKIPPED  35 bytes. Found new synch word
Time 00:00:00.480; Frame#= 46. Unsynchronized frame...SKIPPED  35 bytes. Found new synch word
Time 00:00:00.501; Frame#= 48. Unsynchronized frame...SKIPPED  35 bytes. Found new synch word
Time 00:00:00.522; Frame#= 50. Unsynchronized frame...SKIPPED  35 bytes. Found new synch word
Time 00:00:00.544; Frame#= 52. Unsynchronized frame...SKIPPED  35 bytes. Found new synch word
Time 00:00:00.565; Frame#= 54. Unsynchronized frame...SKIPPED  35 bytes. Found new synch word
Time 00:00:00.586; Frame#= 56. Unsynchronized frame...SKIPPED  35 bytes. Found new synch word
Time 00:00:00.608; Frame#= 58. Unsynchronized frame...SKIPPED  35 bytes. Found new synch word
Time 00:00:00.629; Frame#= 60. Unsynchronized frame...SKIPPED  35 bytes. Found new synch word
Time 00:00:00.650; Frame#= 62. Unsynchronized frame...SKIPPED  35 bytes. Found new synch word
Time 00:00:00.672; Frame#= 64. Unsynchronized frame...SKIPPED  35 bytes. Found new synch word
Time 00:00:00.693; Frame#= 66. Unsynchronized frame...SKIPPED  35 bytes. Found new synch word
Time 00:00:00.714; Frame#= 68. Unsynchronized frame...SKIPPED  35 bytes. Found new synch word
Time 00:00:00.736; Frame#= 70. Unsynchronized frame...SKIPPED  35 bytes. Found new synch word
Time 00:00:00.757; Frame#= 72. Unsynchronized frame...SKIPPED  35 bytes. Found new synch word
Time 00:00:00.778; Frame#= 74. Unsynchronized frame...SKIPPED  35 bytes. Found new synch word
Time 00:00:00.800; Frame#= 76. Unsynchronized frame...SKIPPED  35 bytes. Found new synch word
Time 00:00:00.821; Frame#= 78. Unsynchronized frame...SKIPPED  35 bytes. Found new synch word
Time 00:00:00.842; Frame#= 80. Unsynchronized frame...SKIPPED  35 bytes. Found new synch word
Time 00:00:00.864; Frame#= 82. Unsynchronized frame...SKIPPED  35 bytes. Found new synch word
Time 00:00:00.885; Frame#= 84. Unsynchronized frame...SKIPPED  35 bytes. Found new synch word
Time 00:00:00.906; Frame#= 86. Unsynchronized frame...SKIPPED  35 bytes. Found new synch word
Time 00:00:00.928; Frame#= 88. Unsynchronized frame...SKIPPED  35 bytes. Found new synch word
Time 00:00:00.949; Frame#= 90. Unsynchronized frame...SKIPPED  35 bytes. Found new synch word
Time 00:00:00.970; Frame#= 92. Unsynchronized frame...SKIPPED  35 bytes. Found new synch word
Time 00:00:00.992; Frame#= 94. Unsynchronized frame...SKIPPED  35 bytes. Found new synch word
Time 00:00:01.013; Frame#= 96. Unsynchronized frame...SKIPPED  35 bytes. Found new synch word
Time 00:00:01.034; Frame#= 98. Unsynchronized frame...SKIPPED  35 bytes. Found new synch word
Time 00:00:01.056; Frame#= 100. Unsynchronized frame...SKIPPED  35 bytes. Found new synch word
Time 00:00:01.077; Frame#= 102. Unsynchronized frame...SKIPPED  35 bytes. Found new synch word
Time 00:00:01.098; Frame#= 104. Unsynchronized frame...SKIPPED  35 bytes. Found new synch word
Time 00:00:01.120; Frame#= 106. Unsynchronized frame...SKIPPED  35 bytes. Found new synch word
Time 00:00:01.141; Frame#= 108. Unsynchronized frame...SKIPPED  35 bytes. Found new synch word
Time 00:00:01.162; Frame#= 110. Unsynchronized frame...SKIPPED  35 bytes. Found new synch word
Time 00:00:01.184; Frame#= 112. Unsynchronized frame...SKIPPED  35 bytes. Found new synch word
Time 00:00:01.205; Frame#= 114. Unsynchronized frame...SKIPPED  35 bytes. Found new synch word
Time 00:00:01.226; Frame#= 116. Unsynchronized frame...SKIPPED  35 bytes. Found new synch word
Time 00:00:01.248; Frame#= 118. Unsynchronized frame...SKIPPED  35 bytes. Found new synch word
Time 00:00:01.269; Frame#= 120. Unsynchronized frame...SKIPPED  35 bytes. Found new synch word
Time 00:00:01.290; Frame#= 122. Unsynchronized frame...SKIPPED  35 bytes. Found new synch word
Time 00:00:01.312; Frame#= 124. Unsynchronized frame...SKIPPED  35 bytes. Found new synch word
Time 00:00:01.333; Frame#= 126. Unsynchronized frame...SKIPPED  35 bytes. Found new synch word
Time 00:00:01.354; Frame#= 128. Unsynchronized frame...SKIPPED  35 bytes. Found new synch word
Time 00:00:01.376; Frame#= 130. Unsynchronized frame...SKIPPED  35 bytes. Found new synch word
Time 00:00:01.397; Frame#= 132. Unsynchronized frame...SKIPPED  35 bytes. Found new synch word
Time 00:00:01.418; Frame#= 134. Unsynchronized frame...SKIPPED  35 bytes. Found new synch word
Time 00:00:01.440; Frame#= 136. Unsynchronized frame...SKIPPED  35 bytes. Found new synch word
Time 00:00:01.461; Frame#= 138. Unsynchronized frame...SKIPPED  35 bytes. Found new synch word
Time 00:00:01.482; Frame#= 140. Unsynchronized frame...SKIPPED  35 bytes. Found new synch word
Time 00:00:01.504; Frame#= 142. Unsynchronized frame...SKIPPED  35 bytes. Found new synch word
Time 00:00:01.525; Frame#= 144. Unsynchronized frame...SKIPPED  35 bytes. Found new synch word
Time 00:00:01.546; Frame#= 146. Unsynchronized frame...SKIPPED  35 bytes. Found new synch word
Time 00:00:01.568; Frame#= 148. Unsynchronized frame...SKIPPED  35 bytes. Found new synch word
Time 00:00:01.589; Frame#= 150. Unsynchronized frame...SKIPPED  35 bytes. Found new synch word
Time 00:00:01.610; Frame#= 152. Unsynchronized frame...SKIPPED  35 bytes. Found new synch word
Time 00:00:01.632; Frame#= 154. Unsynchronized frame...SKIPPED  35 bytes. Found new synch word
Time 00:00:01.653; Frame#= 156. Unsynchronized frame...SKIPPED  35 bytes. Found new synch word
Time 00:00:01.674; Frame#= 158. Unsynchronized frame...SKIPPED  35 bytes. Found new synch word
Time 00:00:01.696; Frame#= 160. Unsynchronized frame...SKIPPED  35 bytes. Found new synch word
Time 00:00:01.717; Frame#= 162. Unsynchronized frame...SKIPPED  35 bytes. Found new synch word
Time 00:00:01.738; Frame#= 164. Unsynchronized frame...SKIPPED  35 bytes. Found new synch word
Time 00:00:01.760; Frame#= 166. Unsynchronized frame...SKIPPED  35 bytes. Found new synch word
Time 00:00:01.781; Frame#= 168. Unsynchronized frame...SKIPPED  35 bytes. Found new synch word
Time 00:00:01.802; Frame#= 170. Unsynchronized frame...SKIPPED  35 bytes. Found new synch word
Time 00:00:01.824; Frame#= 172. Unsynchronized frame...SKIPPED  35 bytes. Found new synch word
Time 00:00:01.845; Frame#= 174. Unsynchronized frame...SKIPPED  35 bytes. Found new synch word
Time 00:00:01.866; Frame#= 176. Unsynchronized frame...SKIPPED  35 bytes. Found new synch word
Time 00:00:01.888; Frame#= 178. Unsynchronized frame...SKIPPED  35 bytes. Found new synch word
Time 00:00:01.909; Frame#= 180. Unsynchronized frame...SKIPPED  35 bytes. Found new synch word
Time 00:00:01.930; Frame#= 182. Unsynchronized frame...SKIPPED  35 bytes. Found new synch word
Time 00:00:01.952; Frame#= 184. Unsynchronized frame...SKIPPED  35 bytes. Found new synch word
Time 00:00:01.973; Frame#= 186. Unsynchronized frame...SKIPPED  35 bytes. Found new synch word
Time 00:00:01.994; Frame#= 188. Unsynchronized frame...SKIPPED  35 bytes. Found new synch word
Time 00:00:02.016; Frame#= 190. Unsynchronized frame...SKIPPED  35 bytes. Found new synch word
Time 00:00:02.037; Frame#= 192. Unsynchronized frame...SKIPPED  35 bytes. Found new synch word
Time 00:00:02.058; Frame#= 194. Unsynchronized frame...SKIPPED  35 bytes. Found new synch word
Time 00:00:02.080; Frame#= 196. Unsynchronized frame...SKIPPED  35 bytes. Found new synch word
Time 00:00:02.101; Frame#= 198. Unsynchronized frame...SKIPPED  35 bytes. Found new synch word
Time 00:00:02.122; Frame#= 200. Unsynchronized frame...SKIPPED  35 bytes. Found new synch word
Time 00:00:02.144; Frame#= 202. Unsynchronized frame...SKIPPED  35 bytes. Found new synch word
Too Many Errors. Stop Logging.
Number of written frames = 705191
Number of Errors= 705205
Rozumiem, że mam się nie martwić liczbą errorów i wszystko jest dobrze ?
pozdrawiam
__________________
# PlayStation 4 LE U4 CUH-1216B 1TB / # PlayStation 2 v4 SCPH-30003 / # Nokia Lumia 735 WP 8.1 + AData 32 GB
Pele144 jest offline   Odpowiedz cytując ten post
Stary 28.07.2010, 23:42   #7
Arepo
Guru
 
Avatar użytkownika Arepo
 
Data rejestracji: 01.10.2004
Posty: 3,430
Arepo jest wzorem do naśladowania <650 - 999 pkt>Arepo jest wzorem do naśladowania <650 - 999 pkt>Arepo jest wzorem do naśladowania <650 - 999 pkt>Arepo jest wzorem do naśladowania <650 - 999 pkt>Arepo jest wzorem do naśladowania <650 - 999 pkt>Arepo jest wzorem do naśladowania <650 - 999 pkt>
Cytat:
Napisany przez Pele144 Podgląd Wiadomości
Rozumiem, że mam się nie martwić liczbą errorów i wszystko jest dobrze ?
dokładnie tak

pozdrawiam
__________________
Lite-On iHBS 212, Pioneer BDR-209EBK
Arepo jest offline   Odpowiedz cytując ten post
Stary 29.07.2010, 00:01   #8
Pele144
Stały bywalec ;)
 
Avatar użytkownika Pele144
 
Data rejestracji: 12.06.2007
Lokalizacja: Poznań
Posty: 106
Pele144 zaczyna zdobywać reputację <1 - 49 pkt>
chyba jednak mam się martwić
właśnie próbuję zmuxować tego DTS'a w programie mkvmerge i wywala mi serie błędów:
Kod:
...
Warning: DTS_Header problem: encoded with an incompatible new encoder version
Warning: DTS_Header problem: encoded with an incompatible new encoder version
Warning: DTS_Header problem: encoded with an incompatible new encoder version
...
__________________
# PlayStation 4 LE U4 CUH-1216B 1TB / # PlayStation 2 v4 SCPH-30003 / # Nokia Lumia 735 WP 8.1 + AData 32 GB
Pele144 jest offline   Odpowiedz cytując ten post
Stary 29.07.2010, 00:18   #9
Arepo
Guru
 
Avatar użytkownika Arepo
 
Data rejestracji: 01.10.2004
Posty: 3,430
Arepo jest wzorem do naśladowania <650 - 999 pkt>Arepo jest wzorem do naśladowania <650 - 999 pkt>Arepo jest wzorem do naśladowania <650 - 999 pkt>Arepo jest wzorem do naśladowania <650 - 999 pkt>Arepo jest wzorem do naśladowania <650 - 999 pkt>Arepo jest wzorem do naśladowania <650 - 999 pkt>
Te ominięte ramki przez delaycut dodaje w jakimś celu SurCode. Zrobiłem test i rozbiłem jednego DTS-a, a następnie zakodowałem go w SurCode. Plik wynikowy był większy od oryginału. Po naprawie delaycute-m oba miały identyczną wielkość, więc o usunięte rami nie należy się martwić.

Co jest powodem, że nadal jest źle niestety nie wiem. Może zrób z tego AC3, nie będzie takich problemów.

pozdrawiam
__________________
Lite-On iHBS 212, Pioneer BDR-209EBK
Arepo jest offline   Odpowiedz cytując ten post
Stary 29.07.2010, 07:38   #10
M@X
Get a Mac!
 
Avatar użytkownika M@X
 
Data rejestracji: 18.04.2003
Posty: 10,540
M@X jest wybitnie uzdolniony i zna sie rzeczowo na sprawach <1500 - 1999 pkt>M@X jest wybitnie uzdolniony i zna sie rzeczowo na sprawach <1500 - 1999 pkt>M@X jest wybitnie uzdolniony i zna sie rzeczowo na sprawach <1500 - 1999 pkt>M@X jest wybitnie uzdolniony i zna sie rzeczowo na sprawach <1500 - 1999 pkt>M@X jest wybitnie uzdolniony i zna sie rzeczowo na sprawach <1500 - 1999 pkt>M@X jest wybitnie uzdolniony i zna sie rzeczowo na sprawach <1500 - 1999 pkt>M@X jest wybitnie uzdolniony i zna sie rzeczowo na sprawach <1500 - 1999 pkt>M@X jest wybitnie uzdolniony i zna sie rzeczowo na sprawach <1500 - 1999 pkt>M@X jest wybitnie uzdolniony i zna sie rzeczowo na sprawach <1500 - 1999 pkt>M@X jest wybitnie uzdolniony i zna sie rzeczowo na sprawach <1500 - 1999 pkt>M@X jest wybitnie uzdolniony i zna sie rzeczowo na sprawach <1500 - 1999 pkt>
Nie latwiej wyekstrahowac sobie sciezke DTS w programie tsMuxeR GUI zaznaczajac opcje "Remove HD Audio" (dzieki temu z DTS HD MA zostanie sam Core DTS)?
__________________
"Android to syfiasty, zabugowany, irytujący, zaprojektowany przez idiotów,
lagujący, udający otwarty i wolny system." - sobrus

Hosting na świetnych warunkach z rewelacyjnym wsparciem:
M@X jest offline   Odpowiedz cytując ten post
Stary 29.07.2010, 17:56   #11
Pele144
Stały bywalec ;)
 
Avatar użytkownika Pele144
 
Data rejestracji: 12.06.2007
Lokalizacja: Poznań
Posty: 106
Pele144 zaczyna zdobywać reputację <1 - 49 pkt>
Cytat:
Napisany przez M@X Podgląd Wiadomości
Nie latwiej wyekstrahowac sobie sciezke DTS w programie tsMuxeR GUI zaznaczajac opcje "Remove HD Audio" (dzieki temu z DTS HD MA zostanie sam Core DTS)?
Trzeba było tak od razu mówić, że to takie proste i nic nie trzeba kombinować
Oto parametry DTS'a z tsmuxera:
Kod:
General
Complete name                    : audio_tsmuxer.dts
Format                           : DTS
Format/Info                      : Digital Theater Systems
File size                        : 1.32 GiB
Duration                         : 2h 5mn
Overall bit rate                 : 1 510 Kbps

Audio
Format                           : DTS
Format/Info                      : Digital Theater Systems
Duration                         : 2h 5mn
Bit rate mode                    : Constant
Bit rate                         : 1 510 Kbps
Channel(s)                       : 6 channels
Channel positions                : Front: L C R, Side: L R, LFE
Sampling rate                    : 48.0 KHz
Bit depth                        : 24 bits
Stream size                      : 1.32 GiB (100%)
Tym razem mkvmerge nie wywalał żadnych błędów i wszystko zmuxowało się bez problemu. W razie problemów z odtwarzaniem będę pisał. Dzięki za pomoc
__________________
# PlayStation 4 LE U4 CUH-1216B 1TB / # PlayStation 2 v4 SCPH-30003 / # Nokia Lumia 735 WP 8.1 + AData 32 GB
Pele144 jest offline   Odpowiedz cytując ten post
Odpowiedz na post

Opcje związane z dyskusją
Tryby wyświetlania

Twoje uprawnienia:
Nie możesz rozpoczynać nowych tematów
Nie możesz odpowiadać w tematach
Nie możesz umieszczać załączników
Nie możesz edytować swoich postów

BB codeWłączone
EmotikonkiWłączone
Kody [IMG]Włączone
Kody HTML są Wyłączone

Teleport

Podobne dyskusje
Dyskusja Autor Forum Odpow. Ostatni Post
Poradnik HD - kompletna instalacja i konfiguracja kodeków i playerów. Smartek High Definition 139 11.12.2016 21:03
Funny fotos, kawaly... itp. - jeszcze sie tak nie usmialem :) Kasprzak Humor 4225 11.07.2005 12:59
Projekt Freeware Calme Komputery - oprogramowanie i sprzęt 0 16.05.2005 20:31
Pojęcia z sieci p2p (filmy) Jabba the Hutt Off topic 14 22.06.2004 20:00
Tematy maturalne na Polski.. (przeciek z IRCa ;) Martin_TP Off topic 7 15.05.2003 00:20


Wszystkie czasy w strefie CET. Aktualna godzina: 10:42.


Powered by vBulletin® Version 3.8.11
Copyright ©2000 - 2022, vBulletin Solutions Inc.