Powrót   Forum CDRinfo.pl > Przeszukaj fora



Witaj Nieznajomy! Zaloguj się lub Zarejestruj

Zarejestrowani użytkownicy mają dostęp do dodatkowych opcji, lepszej wyszukiwarki oraz mniejszej ilości reklam. Rejestracja jest całkowicie darmowa!

Aktualnie wyświetlane wypowiedzi: od 1 do 10, wszystkich 10
Czas wyszukiwania 0.00 sekund(y).
Szukaj: Posty napisane przez: albert1972
Forum: Audio/Stacjonarne nagrywarki i nośniki CD-R Audio 14.02.2011, 17:44
Odpow.: 3
Odsłon: 6,395
Napisany przez albert1972
Czyli dokładnie tak jak napisałem wyżej i dlatego...

Czyli dokładnie tak jak napisałem wyżej i dlatego też poszukuję programu w którym się to da... Nie wierzą że w firmach produkujących płyty przy tysiącach albumów wszystko wklepują ręcznie. Tym...
Forum: Audio/Stacjonarne nagrywarki i nośniki CD-R Audio 14.02.2011, 15:48
Odpow.: 3
Odsłon: 6,395
Napisany przez albert1972
*.DTS 5.1 , *.AC3 5.1 z plików na dysku do *.wav 5.1

Poszukuję programu który pliki *.DTS 5.1 , *.AC3 5.1 prze konwertuje mi z w/w formatów plików znajdujących się na dysku twardym, do *.wav 5.1. Wiem że można to zrobić przez DVD ekstraktor a potem...
Forum: Audio/Stacjonarne nagrywarki i nośniki CD-R Audio 17.01.2011, 20:34
Odpow.: 17
Odsłon: 19,714
Napisany przez albert1972
No cóż - muszę przyznać że foobar jest dość...

No cóż - muszę przyznać że foobar jest dość rozbudowany jednak niestety mimo że pięknie widzi pliki DTS.wav oraz ściąga z netu i uzupełnia tagi to nie potrafi zapisać ich do pliku twierdząc że plik...
Forum: Audio/Stacjonarne nagrywarki i nośniki CD-R Audio 16.01.2011, 22:27
Odpow.: 17
Odsłon: 19,714
Napisany przez albert1972
oki tylko w foobarze mam przy plikach DTS tylko...

oki tylko w foobarze mam przy plikach DTS tylko szum. Czy jest może jakaś wtyczka dla dts?
Forum: Audio/Stacjonarne nagrywarki i nośniki CD-R Audio 15.01.2011, 21:45
Odpow.: 17
Odsłon: 19,714
Napisany przez albert1972
no wszystko już pięknie... Trzeba w DVD extraktor...

no wszystko już pięknie... Trzeba w DVD extraktor wybrać funkcje wyszukiwania -Folder-open DVD files from file folder... Tam dostaniemy pliki które normalnie nie są widoczne czyli np DTS 96/24...
Forum: Audio/Stacjonarne nagrywarki i nośniki CD-R Audio 15.01.2011, 02:40
Odpow.: 17
Odsłon: 19,714
Napisany przez albert1972
no widzisz takie szczegóły jak cudzysłów czasem...

no widzisz takie szczegóły jak cudzysłów czasem prowadzą w "ślepą uliczkę" ale muślę że każdy kto prześledzi kiedyś te posty da sobie rade...
apropo .cue ma byś w tytm samym katalogu co wav?
Forum: Audio/Stacjonarne nagrywarki i nośniki CD-R Audio 15.01.2011, 01:54
Odpow.: 17
Odsłon: 19,714
Napisany przez albert1972
FILE Title1 - Chapter 01.wav WAVE TRACK 01...

FILE Title1 - Chapter 01.wav WAVE
TRACK 01 AUDIO
INDEX 01 00:00:00
TRACK 02 AUDIO
INDEX 01 04:27:00
TRACK 03 AUDIO
INDEX 01 08:57:00
TRACK 04 AUDIO
INDEX 01 12:35:50
TRACK 05 AUDIO
Forum: Audio/Stacjonarne nagrywarki i nośniki CD-R Audio 14.01.2011, 23:39
Odpow.: 17
Odsłon: 19,714
Napisany przez albert1972
Oki . Dzięki Tobie opanowałem już...

Oki . Dzięki Tobie opanowałem już zgrywanieścieżki audio z płyty DVD do plików .wav mono gdzie dla każdego z sześciu kanałów jest osobny plik .wav oraz enkoding do DTS w programie SurCode DVD Pro...
Forum: Audio/Stacjonarne nagrywarki i nośniki CD-R Audio 14.01.2011, 02:43
Odpow.: 17
Odsłon: 19,714
Napisany przez albert1972
Oki - spróbuje jak piszesz ale podstawowym...

Oki - spróbuje jak piszesz ale podstawowym problemem jest teraz dla mnie to że w programie SureCode DVD Pro przy próbie wykonania enkodingu wyskakuje mi bład. - Parallel port lock required to run...
Forum: Audio/Stacjonarne nagrywarki i nośniki CD-R Audio 13.01.2011, 03:48
Odpow.: 17
Odsłon: 19,714
Napisany przez albert1972
Turturial DVD Audio Extraktor i prośba o podpowiedź jak podzielić plik DTS

jak w temacie. Jak podzielić cały plik DTS.Wav. na poszczególne utwory? Czytałem sporo postów na ten temat ale wszystkie są dla laika lekko mówiąc mgliste. Czy ktoś mógłby pomóc mi zrozumieć...
Aktualnie wyświetlane wypowiedzi: od 1 do 10, wszystkich 10

 
Teleport

Wszystkie czasy w strefie CET. Aktualna godzina: 19:11.


Powered by vBulletin® Version 3.8.11
Copyright ©2000 - 2020, vBulletin Solutions Inc.