Podgląd pojedynczego posta
Stary 14.01.2011, 03:25   #4
Arepo
Guru
 
Avatar użytkownika Arepo
 
Data rejestracji: 01.10.2004
Posty: 3,351
Arepo jest wzorem do naśladowania <650 - 999 pkt>Arepo jest wzorem do naśladowania <650 - 999 pkt>Arepo jest wzorem do naśladowania <650 - 999 pkt>Arepo jest wzorem do naśladowania <650 - 999 pkt>Arepo jest wzorem do naśladowania <650 - 999 pkt>Arepo jest wzorem do naśladowania <650 - 999 pkt>
Użyj wersji 1.0.29 SurCode.

Wracając jeszcze do podziału *.wav(dts), to po stworzeniu do niego pliku *.cue można go bez problemu podzielić w CUE Splitter .

Aby łatwo zrobić *.cue musisz widzieć, w których miejscach są przerwy. Proponuję tak :
1) szybka konwersja *.wav(dts) w foobar do *.wav (dokładnie powstanie w jednym pliku wielokanałowy *.wavex),
2) wczytać to do Audacity, pojawią się tam pod sobą ładnie wszystkie kanały,
3) znaleźć pozycje gdzie trzeba zrobić przerwy - najlepiej przełączyć się na widok pozycji dźwięku w "gg:mm:ss + klatek CDDA (75 fps)",
4) zrobić *.cue w notatniku w postaci :
Kod:
FILE "*.wav" WAVE
TRACK 01 AUDIO
INDEX 01 00:00:00
TRACK 02 AUDIO
INDEX 01 02:40:34 <-czas 1 przerwy spisany w Audacity
TRACK 03 AUDIO
INDEX 01 05:38:10 <-czas 2 przerwy spisany w Audacity

....
to tyle

pozdrawiam
__________________
Lite-On iHBS 212, Pioneer BDR-209EBK
Arepo jest offline   Odpowiedz cytując ten post