Podgląd pojedynczego posta
Stary 15.01.2011, 01:54   #7
albert1972
Nowy na forum
 
Data rejestracji: 13.01.2011
Posty: 10
albert1972 zaczyna zdobywać reputację <1 - 49 pkt>
FILE Title1 - Chapter 01.wav WAVE
TRACK 01 AUDIO
INDEX 01 00:00:00
TRACK 02 AUDIO
INDEX 01 04:27:00
TRACK 03 AUDIO
INDEX 01 08:57:00
TRACK 04 AUDIO
INDEX 01 12:35:50
TRACK 05 AUDIO
INDEX 01 16:36:30
TRACK 06 AUDIO
INDEX 01 19:33:50
TRACK 07 AUDIO
INDEX 01 22:54:00

czy tak jest poprawnie?

Na kanały rozbija mi już DVD extraktor ale w ramach kursu oczywiście dostosuje się

Ostatnio zmieniany przez albert1972 : 15.01.2011 o godz. 02:01
albert1972 jest offline   Odpowiedz cytując ten post