Podgląd pojedynczego posta
Stary 15.08.2015, 10:59   #3
Aes
Nowy na forum
 
Avatar użytkownika Aes
 
Data rejestracji: 17.11.2005
Posty: 14
Aes w tym momencie nie ma Reputacji dodatnich ani ujemnych <0  pkt>
Cześć. Dzięki za odpowiedź. Odpiszę w punktach, żeby było przejrzyście.

1. Właściwości (MediaInfo):
Kod:
General
Complete name                            : D:\DVD\Berlin Calling\Making Of\VIDEO_TS.BUP
Format                                   : DVD Video
Format profile                           : Menu
File size                                : 6.00 KiB
Overall bit rate mode                    : Variable

Video
ID                                       : 224 (0xE0)
Format                                   : MPEG Video
Format version                           : Version 1
Bit rate mode                            : Variable
Width                                    : 720 pixels
Height                                   : 576 pixels
Display aspect ratio                     : 4:3
Frame rate                               : 25.000 fps
Standard                                 : PAL
Compression mode                         : Lossy

General
Complete name                            : D:\DVD\Berlin Calling\Making Of\VIDEO_TS.IFO
Format                                   : DVD Video
Format profile                           : Menu
File size                                : 6.00 KiB
Overall bit rate mode                    : Variable

Video
ID                                       : 224 (0xE0)
Format                                   : MPEG Video
Format version                           : Version 1
Bit rate mode                            : Variable
Width                                    : 720 pixels
Height                                   : 576 pixels
Display aspect ratio                     : 4:3
Frame rate                               : 25.000 fps
Standard                                 : PAL
Compression mode                         : Lossy

General
Complete name                            : D:\DVD\Berlin Calling\Making Of\VTS_01_0.BUP
Format                                   : DVD Video
Format profile                           : Program
File size                                : 32.0 KiB
Duration                                 : 30mn 38s
Overall bit rate mode                    : Variable
Overall bit rate                         : 143 bps

Video
ID                                       : 224 (0xE0)
Format                                   : MPEG Video
Format version                           : Version 2
Duration                                 : 30mn 38s
Bit rate mode                            : Variable
Width                                    : 720 pixels
Height                                   : 576 pixels
Display aspect ratio                     : 16:9
Frame rate                               : 25.000 fps
Standard                                 : PAL
Compression mode                         : Lossy

Audio
ID                                       : 128 (0x80)
Format                                   : AC-3
Format/Info                              : Audio Coding 3
Duration                                 : 30mn 38s
Channel(s)                               : 2 channels
Sampling rate                            : 48.0 KHz
Compression mode                         : Lossy
Language                                 : German

Text #1
ID                                       : 32 (0x20)
Format                                   : RLE
Format/Info                              : Run-length encoding
Bit depth                                : 2 bits
Language                                 : Polish

Text #2
ID                                       : 33 (0x21)
Format                                   : RLE
Format/Info                              : Run-length encoding
Bit depth                                : 2 bits
Language                                 : English

Menu
Duration                                 : 30mn 38s
00:00:00.000                             : Chapter 1
00:06:07.200                             : Chapter 2
00:08:41.760                             : Chapter 3
00:12:30.240                             : Chapter 4
00:16:04.320                             : Chapter 5
00:19:47.040                             : Chapter 6
00:24:04.320                             : Chapter 7
00:27:11.040                             : Chapter 8
List (Audio)                             : 0
List (Subtitles 4/3)                     : 0 / 1
List (Subtitles Wide)                    : 0 / 1
List (Subtitles Letterbox)               : 0 / 1
List (Subtitles Pan&Scan)                : 0 / 1

General
Complete name                            : D:\DVD\Berlin Calling\Making Of\VTS_01_0.IFO
Format                                   : DVD Video
Format profile                           : Program
File size                                : 32.0 KiB
Duration                                 : 30mn 38s
Overall bit rate mode                    : Variable
Overall bit rate                         : 143 bps

Video
ID                                       : 224 (0xE0)
Format                                   : MPEG Video
Format version                           : Version 2
Duration                                 : 30mn 38s
Bit rate mode                            : Variable
Width                                    : 720 pixels
Height                                   : 576 pixels
Display aspect ratio                     : 16:9
Frame rate                               : 25.000 fps
Standard                                 : PAL
Compression mode                         : Lossy

Audio
ID                                       : 128 (0x80)
Format                                   : AC-3
Format/Info                              : Audio Coding 3
Duration                                 : 30mn 38s
Channel(s)                               : 2 channels
Sampling rate                            : 48.0 KHz
Compression mode                         : Lossy
Language                                 : German

Text #1
ID                                       : 32 (0x20)
Format                                   : RLE
Format/Info                              : Run-length encoding
Bit depth                                : 2 bits
Language                                 : Polish

Text #2
ID                                       : 33 (0x21)
Format                                   : RLE
Format/Info                              : Run-length encoding
Bit depth                                : 2 bits
Language                                 : English

Menu
Duration                                 : 30mn 38s
00:00:00.000                             : Chapter 1
00:06:07.200                             : Chapter 2
00:08:41.760                             : Chapter 3
00:12:30.240                             : Chapter 4
00:16:04.320                             : Chapter 5
00:19:47.040                             : Chapter 6
00:24:04.320                             : Chapter 7
00:27:11.040                             : Chapter 8
List (Audio)                             : 0
List (Subtitles 4/3)                     : 0 / 1
List (Subtitles Wide)                    : 0 / 1
List (Subtitles Letterbox)               : 0 / 1
List (Subtitles Pan&Scan)                : 0 / 1

General
Complete name                            : D:\DVD\Berlin Calling\Making Of\VTS_01_1.VOB
Format                                   : MPEG-PS
File size                                : 1 024 MiB
Duration                                 : 23mn 11s
Overall bit rate mode                    : Variable
Overall bit rate                         : 6 172 Kbps

Video
ID                                       : 224 (0xE0)
Format                                   : MPEG Video
Format version                           : Version 2
Format profile                           : Main@Main
Format settings, BVOP                    : Yes
Format settings, Matrix                  : Custom
Format settings, GOP                     : M=3, N=12
Format settings, picture structure       : Frame
Duration                                 : 23mn 11s
Bit rate mode                            : Variable
Bit rate                                 : 4 513 Kbps
Maximum bit rate                         : 7 000 Kbps
Width                                    : 720 pixels
Height                                   : 576 pixels
Display aspect ratio                     : 16:9
Frame rate                               : 25.000 fps
Standard                                 : PAL
Color space                              : YUV
Chroma subsampling                       : 4:2:0
Bit depth                                : 8 bits
Scan type                                : Interlaced
Scan order                               : Top Field First
Compression mode                         : Lossy
Bits/(Pixel*Frame)                       : 0.435
Time code of first frame                 : 11:19:39:13
Time code source                         : Group of pictures header
GOP, Open/Closed                         : Closed
Stream size                              : 749 MiB (73%)

Audio
ID                                       : 189 (0xBD)-160 (0xA0)
Format                                   : PCM
Format settings, Endianness              : Big
Format settings, Sign                    : Signed
Muxing mode                              : DVD-Video
Duration                                 : 23mn 11s
Bit rate mode                            : Constant
Bit rate                                 : 1 536 Kbps
Channel(s)                               : 2 channels
Sampling rate                            : 48.0 KHz
Bit depth                                : 16 bits
Stream size                              : 255 MiB (25%)

Text #1
ID                                       : 189 (0xBD)-32 (0x20)
Format                                   : RLE
Format/Info                              : Run-length encoding
Muxing mode                              : DVD-Video

Text #2
ID                                       : 189 (0xBD)-33 (0x21)
Format                                   : RLE
Format/Info                              : Run-length encoding
Muxing mode                              : DVD-Video

Menu

General
Complete name                            : D:\DVD\Berlin Calling\Making Of\VTS_01_2.VOB
Format                                   : MPEG-PS
File size                                : 356 MiB
Duration                                 : 7mn 26s
Overall bit rate mode                    : Variable
Overall bit rate                         : 6 695 Kbps

Video
ID                                       : 224 (0xE0)
Format                                   : MPEG Video
Format version                           : Version 2
Format profile                           : Main@Main
Format settings, BVOP                    : Yes
Format settings, Matrix                  : Custom
Format settings, GOP                     : M=3, N=12
Format settings, picture structure       : Frame
Duration                                 : 7mn 26s
Bit rate mode                            : Variable
Bit rate                                 : 5 025 Kbps
Maximum bit rate                         : 7 000 Kbps
Width                                    : 720 pixels
Height                                   : 576 pixels
Display aspect ratio                     : 16:9
Frame rate                               : 25.000 fps
Standard                                 : PAL
Color space                              : YUV
Chroma subsampling                       : 4:2:0
Bit depth                                : 8 bits
Scan type                                : Interlaced
Scan order                               : Top Field First
Compression mode                         : Lossy
Bits/(Pixel*Frame)                       : 0.485
Time code of first frame                 : 11:42:51:13
Time code source                         : Group of pictures header
GOP, Open/Closed                         : Closed
Stream size                              : 267 MiB (75%)

Audio
ID                                       : 189 (0xBD)-160 (0xA0)
Format                                   : PCM
Format settings, Endianness              : Big
Format settings, Sign                    : Signed
Muxing mode                              : DVD-Video
Duration                                 : 7mn 26s
Bit rate mode                            : Constant
Bit rate                                 : 1 536 Kbps
Channel(s)                               : 2 channels
Sampling rate                            : 48.0 KHz
Bit depth                                : 16 bits
Delay relative to video                  : -612ms
Stream size                              : 81.7 MiB (23%)

Text #1
ID                                       : 189 (0xBD)-32 (0x20)
Format                                   : RLE
Format/Info                              : Run-length encoding
Muxing mode                              : DVD-Video
Delay relative to video                  : 4s 40ms

Text #2
ID                                       : 189 (0xBD)-33 (0x21)
Format                                   : RLE
Format/Info                              : Run-length encoding
Muxing mode                              : DVD-Video
Delay relative to video                  : 4s 40ms

Menu
2. Właściwości pliku audio

Kod:
Duration : 30:37.738 (88 211 440 samples)
Sample rate : 48000 Hz
Channels : 2
Bits per sample : 16
Bitrate : 1536 kbps
Codec : PCM
Encoding : lossless
Plik audio po wyeksportowaniu otwiera się bez problemu. Mogę go swobodnie odtwarzać i konwertować do innych formatów.
Aes jest offline   Odpowiedz cytując ten post