Podgląd pojedynczego posta
Stary 26.01.2021, 22:25   #109
Kirby
Stały bywalec ;)
 
Data rejestracji: 02.05.2019
Lokalizacja: Germany
Posty: 144
Kirby jest świetnie znany wszystkim <550 - 649 pkt>Kirby jest świetnie znany wszystkim <550 - 649 pkt>Kirby jest świetnie znany wszystkim <550 - 649 pkt>Kirby jest świetnie znany wszystkim <550 - 649 pkt>Kirby jest świetnie znany wszystkim <550 - 649 pkt>Kirby jest świetnie znany wszystkim <550 - 649 pkt>
Cactus Data Shield Protection - Audio

Natalie Imbruglia - White Lilies Island

Protection: Cactus Data Shield

Copied without any Errors an Pioneer BDR212V

[CTDB TOCID: H24aR3bDI.40e0.VyIPE8dSZA3A-] found
Submit result: H24aR3bDI.40e0.VyIPE8dSZA3A- has been confirmed
Track | CTDB Status
1 | ( 31/237) Accurately ripped
2 | ( 31/237) Accurately ripped
3 | ( 31/237) Accurately ripped
4 | ( 31/237) Accurately ripped
5 | ( 31/237) Accurately ripped
6 | ( 31/237) Accurately ripped
7 | ( 32/237) Accurately ripped
8 | ( 32/237) Accurately ripped
9 | ( 32/237) Accurately ripped
10 | ( 32/237) Accurately ripped
11 | ( 32/237) Accurately ripped
12 | ( 32/237) Accurately ripped



TOC der ausgelesenen CD


Track | Start | Länge | Startsektor | Endsektor
-------------------------------------------------------
1 | 0:00.00 | 4:44.31 | 0 | 21330
2 | 4:44.31 | 4:21.23 | 21331 | 40928
3 | 9:05.54 | 3:08.70 | 40929 | 55098
4 | 12:14.49 | 4:43.50 | 55099 | 76373
5 | 16:58.24 | 4:17.70 | 76374 | 95718
6 | 21:16.19 | 5:00.67 | 95719 | 118285
7 | 26:17.11 | 4:01.35 | 118286 | 136395
8 | 30:18.46 | 3:38.53 | 136396 | 152798
9 | 33:57.24 | 5:01.62 | 152799 | 175435
10 | 38:59.11 | 3:29.50 | 175436 | 191160
11 | 42:28.61 | 4:56.18 | 191161 | 213378
12 | 47:25.04 | 4:11.12 | 213379 | 232215
13 | 54:08.16 | 19:49.59 | 243616 | 332849
Dołączone obrazki
Pioneer BDR-212V - Vinpower / Pioneer-natalie-imbruglia-white-lilies-island.jpg 

Ostatnio zmieniany przez Kirby : 26.01.2021 o godz. 22:43 Powód: More Info...
Kirby jest offline   Odpowiedz cytując ten post