Powrót   Forum CDRinfo.pl > >

DVD-Video Tematy poświęcone kopiowaniu, edycji, konwersji i kompresji z/do formatu DVD



Witaj Nieznajomy! Zaloguj się lub Zarejestruj

Zarejestrowani użytkownicy mają dostęp do dodatkowych opcji, lepszej wyszukiwarki oraz mniejszej ilości reklam. Rejestracja jest całkowicie darmowa!

Odpowiedz na post
 
Opcje związane z dyskusją Ocena dyskusji Tryby wyświetlania
Stary 16.04.2011, 08:18   #1
SimonSajmon
Nowy na forum
 
Data rejestracji: 22.08.2010
Posty: 6
SimonSajmon w tym momencie nie ma Reputacji dodatnich ani ujemnych <0  pkt>
MPEG2 -> DVD-Video, porada

Posiadam własnoręcznie zmontowany materiał, który z Premiere CS4 wyexportowałem do MPEG2-DVD. Film chciałbym teraz wypalić na płytę DVD_V. Do tej pory używałem do tego Nero Vision Express z opcją Smart Encoding. Materiał jest krótki więc wszystkie ustawienie dawałem maksymalnie. Moje pytanie jest takie: czy wypalenie mojego projektu przez NVE pogarsza jego jakość? Porównując oryginał prosto po exporcie z nagranym już dvd nie widzę różnicy ale ciekaw jestem czy coś się mogło zmienić.
Czy jest jakiś program który wypali mi te mpeg2 na dvd-v bez najmniejszej utraty jakości?
SimonSajmon jest offline   Odpowiedz cytując ten post

  #ads
CDRinfo.pl
Reklamowiec
 
 
 
Data rejestracji: 29.12.2008
Lokalizacja: Sieć globalna
Wiek: 31
Posty: 1227
 

CDRinfo.pl is online  
Stary 16.04.2011, 08:50   #2
andy
logged out
CDRinfo VIP
 
Avatar użytkownika andy
 
Data rejestracji: 12.07.2003
Lokalizacja: /home
Posty: 12,517
andy jest wzorem do naśladowania <650 - 999 pkt>andy jest wzorem do naśladowania <650 - 999 pkt>andy jest wzorem do naśladowania <650 - 999 pkt>andy jest wzorem do naśladowania <650 - 999 pkt>andy jest wzorem do naśladowania <650 - 999 pkt>andy jest wzorem do naśladowania <650 - 999 pkt>andy jest wzorem do naśladowania <650 - 999 pkt>andy jest wzorem do naśladowania <650 - 999 pkt>
Podaj parametry/wlasciwosci tego pliku, wyciagniesz je za pomoca np. MediaInfo.
__________________
XMPP: andrzej(at)czerniak.info.pl
andy jest offline   Odpowiedz cytując ten post
Stary 16.04.2011, 09:59   #3
SimonSajmon
Nowy na forum
 
Data rejestracji: 22.08.2010
Posty: 6
SimonSajmon w tym momencie nie ma Reputacji dodatnich ani ujemnych <0  pkt>
Oto dane pliku wyeksportowanego bezpośrednio z Premiere:


Format : MPEG-PS
File size : 174 MiB
Duration : 2mn 35s
Overall bit rate : 9 386 Kbps

Video
ID : 224 (0xE0)
Format : MPEG Video
Format version : Version 2
Format profile : Main@Main
Format settings, BVOP : Yes
Format settings, Matrix : Default
Format settings, GOP : M=3, N=15
Duration : 2mn 35s
Bit rate mode : Variable
Bit rate : 9 000 Kbps
Width : 720 pixels
Height : 576 pixels
Display aspect ratio : 16:9
Frame rate : 25.000 fps
Standard : PAL
Color space : YUV
Chroma subsampling : 4:2:0
Bit depth : 8 bits
Scan type : Interlaced
Scan order : Bottom Field First
Compression mode : Lossy
Bits/(Pixel*Frame) : 0.868
Stream size : 164 MiB (95%)

Audio
ID : 189 (0xBD)-128 (0x80)
Format : AC-3
Format/Info : Audio Coding 3
Mode extension : CM (complete main)
Muxing mode : DVD-Video
Duration : 2mn 35s
Bit rate mode : Constant
Bit rate : 320 Kbps
Channel(s) : 2 channels
Channel positions : Front: L R
Sampling rate : 48.0 KHz
Bit depth : 16 bits
Compression mode : Lossy
Delay relative to video : -80ms
Stream size : 5.92 MiB (3%)

A tu są dane z DVD:
General
Count : 277
Count of stream of this kind : 1
Kind of stream : General
Kind of stream : General
Stream identifier : 0
Inform : MPEG-PS: 172 MiB, 2mn 35s
Count of video streams : 1
Count of audio streams : 1
Count of menu streams : 1
Video_Format_List : MPEG Video
Video_Format_WithHint_List : MPEG Video
Codecs Video : MPEG-2 Video
Audio_Format_List : MPEG Audio
Audio_Format_WithHint_List : MPEG Audio
Audio codecs : MPEG-1 Audio layer 2
Menu_Format_List : DVD-Video
Menu_Format_WithHint_List : DVD-Video
Menu codecs : DVD-Video
Complete name : E:\VIDEO_TS\VTS_01_1.VOB
Folder name : E:\VIDEO_TS
File name : VTS_01_1
File extension : vob
Format : MPEG-PS
Format : MPEG-PS
Format/Extensions usually used : mpeg mpg m2p vob pss
Commercial name : MPEG-PS
Internet media type : video/MP2P
Codec : MPEG-PS
Codec : MPEG-PS
Codec/Extensions usually used : mpeg mpg m2p vob pss
File size : 180183040
File size : 172 MiB
File size : 172 MiB
File size : 172 MiB
File size : 172 MiB
File size : 171.8 MiB
Duration : 155240
Duration : 2mn 35s
Duration : 2mn 35s 240ms
Duration : 2mn 35s
Duration : 00:02:35.240
Overall bit rate : 9285392
Overall bit rate : 9 285 Kbps
Stream size : 3585875
Stream size : 3.42 MiB (2%)
Stream size : 3 MiB
Stream size : 3.4 MiB
Stream size : 3.42 MiB
Stream size : 3.420 MiB
Stream size : 3.42 MiB (2%)
Proportion of this stream : 0.01990
File creation date : UTC 2011-04-15 16:23:20.000
File creation date (local) : 2011-04-15 18:23:20.000
File last modification date : UTC 2011-04-15 16:23:20.000
File last modification date (loc : 2011-04-15 18:23:20.000

Video
Count : 194
Count of stream of this kind : 1
Kind of stream : Video
Kind of stream : Video
Stream identifier : 0
Inform : 8 877 Kbps (9 610 Kbps), 720*576 (16:9), at 25.000 fps, MPEG Video (PAL) (Version 2) (Main@Main) (BVOP)
ID : 224
ID : 224 (0xE0)
Format : MPEG Video
Commercial name : MPEG-2 Video
Format version : Version 2
Format profile : Main@Main
Format settings : BVOP
Format settings, BVOP : Yes
Format settings, BVOP : Yes
Format settings, Matrix : Default
Format settings, Matrix : Default
Format settings, GOP : M=3, N=15
Internet media type : video/MPV
Codec : MPEG-2V
Codec : MPEG-2 Video
Codec/Family : MPEG-V
Codec profile : Main@Main
Codec settings, Matrix : Default
Duration : 155240
Duration : 2mn 35s
Duration : 2mn 35s 240ms
Duration : 2mn 35s
Duration : 00:02:35.240
Bit rate mode : VBR
Bit rate mode : Variable
Bit rate : 8876613
Bit rate : 8 877 Kbps
Nominal bit rate : 9610000
Nominal bit rate : 9 610 Kbps
Width : 720
Width : 720 pixels
Height : 576
Height : 576 pixels
Pixel aspect ratio : 1.422
Display aspect ratio : 1.778
Display aspect ratio : 16:9
Frame rate : 25.000
Frame rate : 25.000 fps
Frame count : 3881
Standard : PAL
Resolution : 8
Resolution : 8 bits
Colorimetry : 4:2:0
Color space : YUV
Chroma subsampling : 4:2:0
Bit depth : 8
Bit depth : 8 bits
Scan type : Interlaced
Scan type : Interlaced
Scan order : BFF
Scan order : Bottom Field First
Interlacement : BFF
Interlacement : Bottom Field First
Compression mode : Lossy
Compression mode : Lossy
Bits/(Pixel*Frame) : 0.856
Delay : 319.256
Delay : 319ms
Delay : 319ms
Delay : 319ms
Delay : 00:00:00.319
Delay, origin : Container
Delay, origin : Container
Delay_Original : 0
Delay_Original : 00:00:00.000
Delay_Original_Settings : drop_frame_flag=0 / closed_gop=1 / broken_link=0
Delay_Original_Source : Stream
Stream size : 172250669
Stream size : 164 MiB (96%)
Stream size : 164 MiB
Stream size : 164 MiB
Stream size : 164 MiB
Stream size : 164.3 MiB
Stream size : 164 MiB (96%)
Proportion of this stream : 0.95598
Buffer size : 229376
intra_dc_precision : 9

Audio
Count : 157
Count of stream of this kind : 1
Kind of stream : Audio
Kind of stream : Audio
Stream identifier : 0
Inform : 224 Kbps, 48.0 KHz, 2 channels, MPEG Audio (Version 1) (Layer 2)
ID : 192
ID : 192 (0xC0)
Format : MPEG Audio
Commercial name : MPEG Audio
Format version : Version 1
Format profile : Layer 2
Internet media type : audio/mpeg
Codec : MPA1L2
Codec : MPEG-1 Audio layer 2
Duration : 155232
Duration : 2mn 35s
Duration : 2mn 35s 232ms
Duration : 2mn 35s
Duration : 00:02:35.232
Bit rate mode : CBR
Bit rate mode : Constant
Bit rate : 224000
Bit rate : 224 Kbps
Channel(s) : 2
Channel(s) : 2 channels
Sampling rate : 48000
Sampling rate : 48.0 KHz
Samples count : 7451136
Frame count : 6468
Compression mode : Lossy
Compression mode : Lossy
Delay : 279.256
Delay : 279ms
Delay : 279ms
Delay : 279ms
Delay : 00:00:00.279
Delay, origin : Container
Delay, origin : Container
Delay relative to video : -40
Delay relative to video : -40ms
Delay relative to video : -40ms
Delay relative to video : -40ms
Delay relative to video : -00:00:00.040
Video0 delay : -40
Video0 delay : -40ms
Video0 delay : -40ms
Video0 delay : -40ms
Video0 delay : -00:00:00.040
Stream size : 4346496
Stream size : 4.15 MiB (2%)
Stream size : 4 MiB
Stream size : 4.1 MiB
Stream size : 4.15 MiB
Stream size : 4.145 MiB
Stream size : 4.15 MiB (2%)
Proportion of this stream : 0.02412

Menu
Count : 71
Count of stream of this kind : 1
Kind of stream : Menu
Kind of stream : Menu
Stream identifier : 0
Format : DVD-Video
Commercial name : DVD-Video
Codec : DVD-Video
Codec : DVD-Video

Ostatnio zmieniany przez SimonSajmon : 16.04.2011 o godz. 10:16
SimonSajmon jest offline   Odpowiedz cytując ten post
Stary 16.04.2011, 12:39   #4
andy
logged out
CDRinfo VIP
 
Avatar użytkownika andy
 
Data rejestracji: 12.07.2003
Lokalizacja: /home
Posty: 12,517
andy jest wzorem do naśladowania <650 - 999 pkt>andy jest wzorem do naśladowania <650 - 999 pkt>andy jest wzorem do naśladowania <650 - 999 pkt>andy jest wzorem do naśladowania <650 - 999 pkt>andy jest wzorem do naśladowania <650 - 999 pkt>andy jest wzorem do naśladowania <650 - 999 pkt>andy jest wzorem do naśladowania <650 - 999 pkt>andy jest wzorem do naśladowania <650 - 999 pkt>
Te pliki są już w standardzie DVDVideo więc każda kolejna rekompresja jest A) Bez sensu, B) powoduje pogorszenie materiału.

Nagraj to normalnie jako materiał DVD Video bez rekompresji i będzie ok.
__________________
XMPP: andrzej(at)czerniak.info.pl
andy jest offline   Odpowiedz cytując ten post
Stary 16.04.2011, 12:44   #5
SimonSajmon
Nowy na forum
 
Data rejestracji: 22.08.2010
Posty: 6
SimonSajmon w tym momencie nie ma Reputacji dodatnich ani ujemnych <0  pkt>
Nagrywałem to normalnie jako płytę DVD-Video, co muszę zrobić by było bez rekompresji? zmieniłem tylko standardowe ustawienia typu VBR czy wysoka jakosć.... Sorry za być może głupie pytania ale już wariuję z tym wypalaniem płyt. A patrząc na tym forum widze ze duzo osob ma niezłą wiedze w tym temacie. Muszę wypalić zmontowany przez siebei projekt w maksymalnie najlepszej jakości i im więcej zaczałem o tym czytać zorientowałem się że coraz mniej wiem...

Ostatnio zmieniany przez SimonSajmon : 16.04.2011 o godz. 12:56
SimonSajmon jest offline   Odpowiedz cytując ten post
Stary 16.04.2011, 13:09   #6
andy
logged out
CDRinfo VIP
 
Avatar użytkownika andy
 
Data rejestracji: 12.07.2003
Lokalizacja: /home
Posty: 12,517
andy jest wzorem do naśladowania <650 - 999 pkt>andy jest wzorem do naśladowania <650 - 999 pkt>andy jest wzorem do naśladowania <650 - 999 pkt>andy jest wzorem do naśladowania <650 - 999 pkt>andy jest wzorem do naśladowania <650 - 999 pkt>andy jest wzorem do naśladowania <650 - 999 pkt>andy jest wzorem do naśladowania <650 - 999 pkt>andy jest wzorem do naśladowania <650 - 999 pkt>
Nagraj to jako dane i będzie ok. Pokaż jeszcze strukturę plików.(screen, napisz..)
__________________
XMPP: andrzej(at)czerniak.info.pl
andy jest offline   Odpowiedz cytując ten post
Stary 16.04.2011, 13:21   #7
SimonSajmon
Nowy na forum
 
Data rejestracji: 22.08.2010
Posty: 6
SimonSajmon w tym momencie nie ma Reputacji dodatnich ani ujemnych <0  pkt>
Adobe wypuszcza mi 3 pliki : Nazwa MPEG-2 file, Nazwa plik XMP oraz Nazwa.mpg.xmpses plik xmpses
SimonSajmon jest offline   Odpowiedz cytując ten post
Stary 16.04.2011, 14:00   #8
Reetou
Zarejestrowany
 
Data rejestracji: 18.05.2004
Posty: 9,559
Reetou ma doskonałą reputację, jest przykładem osoby znającej się na rzeczy <2000 i więcej pkt>Reetou ma doskonałą reputację, jest przykładem osoby znającej się na rzeczy <2000 i więcej pkt>Reetou ma doskonałą reputację, jest przykładem osoby znającej się na rzeczy <2000 i więcej pkt>Reetou ma doskonałą reputację, jest przykładem osoby znającej się na rzeczy <2000 i więcej pkt>Reetou ma doskonałą reputację, jest przykładem osoby znającej się na rzeczy <2000 i więcej pkt>Reetou ma doskonałą reputację, jest przykładem osoby znającej się na rzeczy <2000 i więcej pkt>Reetou ma doskonałą reputację, jest przykładem osoby znającej się na rzeczy <2000 i więcej pkt>Reetou ma doskonałą reputację, jest przykładem osoby znającej się na rzeczy <2000 i więcej pkt>Reetou ma doskonałą reputację, jest przykładem osoby znającej się na rzeczy <2000 i więcej pkt>Reetou ma doskonałą reputację, jest przykładem osoby znającej się na rzeczy <2000 i więcej pkt>Reetou ma doskonałą reputację, jest przykładem osoby znającej się na rzeczy <2000 i więcej pkt>
Dziwny format, pewnie wykorzystywany przez jakiś program Adobe do złożenia z tego DVD-Video. Nie ma możliwości wypuszczenia bezpośrednio czegoś do palenia z tego Premiera? Pewnie jest, zwróć uwagę następnym razem.

Visiona nerowskiego możesz wyrzucić - niezależnie co mu podasz, zawsze dokonuje rekompresji w/g własnego widzi mi się. A każda rekompresja to strata jakości.

A jak podejść do tego co masz teraz? Ładnie to by wyglądało tak - trzeba znaleźć jakieś narzędzie, które rozdzieli strumienie audio i video od siebie (mpeg toolsy w TMPGEnc coś takiego robiły), a później zrobić authoring DVD w np. ifoEdit.

A brzydko: zmień nazwę tego mpega na VTS_01_0.VOB i w ifoEdit dorób do niego pliki ifo (przycisk Create IFOs). Powinno działać.
Reetou jest offline   Odpowiedz cytując ten post
Stary 16.04.2011, 15:10   #9
SimonSajmon
Nowy na forum
 
Data rejestracji: 22.08.2010
Posty: 6
SimonSajmon w tym momencie nie ma Reputacji dodatnich ani ujemnych <0  pkt>
Niestety Premiere nie pali bezpośrednio na płyty... Te formaty pojawiają sie gdy przy exporcie zaznaczę opcję multiplexing dvd. Gdy jej nie zaznaczałem, Premiere wypuszczał mi audio i video w dwóch plikach jednak po wrzuceniu do Nero pojawiał sie 2-sekundowy asynchron, nie mam pojęcia czemu...

Czyli nero do kosza?
SimonSajmon jest offline   Odpowiedz cytując ten post
Odpowiedz na post

Opcje związane z dyskusją
Tryby wyświetlania Oceń tę dyskusję
Oceń tę dyskusję:

Twoje uprawnienia:
Nie możesz rozpoczynać nowych tematów
Nie możesz odpowiadać w tematach
Nie możesz umieszczać załączników
Nie możesz edytować swoich postów

BB codeWłączone
EmotikonkiWłączone
Kody [IMG]Włączone
Kody HTML są Wyłączone

Teleport

Podobne dyskusje
Dyskusja Autor Forum Odpow. Ostatni Post
Jaką kupić nagryware DVD z niżej wymienionych ? mistrzu84 Napędy optyczne DVD 5 17.02.2006 21:56
NeroVision Express sie je... HELP lukmeen Napędy optyczne CD 1 16.07.2005 23:44
Przerobiłem .avi do DVD Video, lecz mam problem z napisami. yazz_aka_maish DVD-Video 33 29.01.2005 09:58


Wszystkie czasy w strefie CET. Aktualna godzina: 11:53.


Powered by vBulletin® Version 3.8.11
Copyright ©2000 - 2020, vBulletin Solutions Inc.