Powrót   Forum CDRinfo.pl > Edycja, konwersja i kompresja audio/video > DivX, Xvid, Matroska i inne

DivX, Xvid, Matroska i inne Dział poświęcony enkodowaniu i zrzucaniu DVD-Video, BDMV-Video i UHD BDMV-Video na format stratny



Witaj Nieznajomy! Zaloguj się lub Zarejestruj

Zarejestrowani użytkownicy mają dostęp do dodatkowych opcji, lepszej wyszukiwarki oraz mniejszej ilości reklam. Rejestracja jest całkowicie darmowa!

Odpowiedz na post
 
Opcje związane z dyskusją Ocena dyskusji Tryby wyświetlania
Stary 07.03.2011, 11:38   #1
MFrost
Bywalec
 
Data rejestracji: 25.10.2005
Posty: 34
MFrost w tym momencie nie ma Reputacji dodatnich ani ujemnych <0  pkt>
konwersja mov do flv

W jaki sposób dokonać prawidłowej konwersji w/w formatów, szukałem różnych programów, ale to jakaś lipa, bardzo kiepska jakość jest po konwersji mov na flv, natomiast o dziwo jak konwertuje na swf to jest spoko, możecie mi doradzić? pozdrawiam
MFrost jest offline   Odpowiedz cytując ten post

  #ads
CDRinfo.pl
Reklamowiec
 
 
 
Data rejestracji: 29.12.2008
Lokalizacja: Sieć globalna
Wiek: 31
Posty: 1227
 

CDRinfo.pl is online  
Stary 09.03.2011, 15:32   #2
dvd24
Nowy na forum
 
Data rejestracji: 07.11.2010
Posty: 21
dvd24 w tym momencie nie ma Reputacji dodatnich ani ujemnych <0  pkt>
Spróbuj wykorzystać darmowy FormatFactory - tam są różne sposoby konwertowania jednych formatów do innych w tym do flv.
__________________
### Notebook HP DV7, Windows 7, Linux Ubuntu 10.10 ###
dvd24 jest offline   Odpowiedz cytując ten post
Stary 20.04.2011, 13:25   #3
Kowa1
Nowy na forum
 
Avatar użytkownika Kowa1
 
Data rejestracji: 25.08.2010
Posty: 18
Kowa1 jest tu z lekka niepopularny <-31- -50 pkt>
Tak naprawdę to niema takiego narzędzia, bo jeśli nawet coś udaje że to robi to w praktyce robi to przez format pośredni w dwóch przebiegach. O ile dobrze pamiętam to robił to PrismVideoConverter firmy NCH po doinstalowaniu z jego strony dodatkowych pluginów i chyba też musiał być Quicktime.
Kowa1 jest offline   Odpowiedz cytując ten post
Stary 20.04.2011, 14:13   #4
Misiek4
____
 
Avatar użytkownika Misiek4
 
Data rejestracji: 26.05.2000
Lokalizacja: Tarnow
Posty: 1,738
Misiek4 jak się przyłoży ma szansę zostać specem <150 - 249 pkt>Misiek4 jak się przyłoży ma szansę zostać specem <150 - 249 pkt>Misiek4 jak się przyłoży ma szansę zostać specem <150 - 249 pkt>
Sprobuj Freemake Video Converter
__________________
Pozdrawiam
Misiek4

Wydaje Ci się, że masz szybki dysk twardy/SSD? Dodaj go do rankingu i sprawdź czy jest najszybszy .
Misiek4 jest offline   Odpowiedz cytując ten post
Stary 20.04.2011, 22:41   #5
Placio74
VideoAudio
 
Avatar użytkownika Placio74
 
Data rejestracji: 10.04.2005
Lokalizacja: Elbląg
Posty: 218
Placio74 niedługo stanie się sławny ;) <50 - 149 pkt>
Jeśli MFrost jest nadal zainteresowany tematem... jakie formaty audio/wideo są w tym pliku MOV i jaki jest cel konwersji do FLV?

W przypadku wideo AVC i audio AAC można po prostu zmienić kontener (MOV>FLV), bez przekodowywania audio/wideo.
Jeśli w danym pliku MOV znajdują się inne formaty audio/wideo, to oczywiście wymagane jest ich przekodowanie. Wówczas istotną kwestią jest nie tylko używany konwerter bądź edytor, ale również wybrane kodeki A/V (różnica pomiędzy kodowaniem MPEG-4 AVC, VP6 oraz H.263 jest dość spora) oraz ich ustawienia.
__________________
VideoAudio.pl - Serwis o technologii wideo & audio
Placio74 jest offline   Odpowiedz cytując ten post
Stary 03.05.2011, 20:24   #6
MFrost
Bywalec
 
Data rejestracji: 25.10.2005
Posty: 34
MFrost w tym momencie nie ma Reputacji dodatnich ani ujemnych <0  pkt>
powyższe programy są dość kiepskie, podaje parametry filmu mov wygenerowane przez MPC - HC x64

General
Complete name : F:\kopia d\docs\lcmz\bieznia\IMG_0594.MOV
Format : MPEG-4
Format profile : QuickTime
Codec ID : qt
File size : 3.57 MiB
Duration : 38s 400ms
Overall bit rate : 780 Kbps
Encoded date : UTC 2011-01-17 12:39:04
Tagged date : UTC 2011-01-17 12:39:14
Writing application : 4.0.2
Writing library : Apple QuickTime
Make : Apple
©xyz : +51.2764+022.5721/
Model : iPhone
com.apple.quicktime.make : Apple
com.apple.quicktime.creationdate : 2011-01-12T14:49:30+0100
com.apple.quicktime.software : 4.0.2
com.apple.quicktime.location.ISO : +51.2764+022.5721/
com.apple.quicktime.model : iPhone

Video
ID : 2
Format : AVC
Format/Info : Advanced Video Codec
Format profile : Baseline@L3.0
Format settings, CABAC : No
Format settings, ReFrames : 1 frame
Codec ID : avc1
Codec ID/Info : Advanced Video Coding
Duration : 38s 400ms
Bit rate mode : Variable
Bit rate : 713 Kbps
Width : 568 pixels
Height : 320 pixels
Display aspect ratio : 16:9
Frame rate mode : Constant
Frame rate : 30.000 fps
Color space : YUV
Chroma subsampling : 4:2:0
Bit depth : 8 bits
Scan type : Progressive
Bits/(Pixel*Frame) : 0.131
Stream size : 3.26 MiB (91%)
Title : Core Media Video
Encoded date : UTC 2011-01-17 12:39:04
Tagged date : UTC 2011-01-17 12:39:14
Color primaries : BT.601-6 525, BT.1358 525, BT.1700 NTSC, SMPTE 170M
Transfer characteristics : BT.709-5, BT.1361
Matrix coefficients : BT.601-6 525, BT.1358 525, BT.1700 NTSC, SMPTE 170M

Audio
ID : 1
Format : AAC
Format/Info : Advanced Audio Codec
Format profile : LC
Codec ID : 40
Duration : 38s 382ms
Bit rate mode : Constant
Bit rate : 64.0 Kbps
Channel(s) : 1 channel
Channel positions : Front: C
Sampling rate : 44.1 KHz
Compression mode : Lossy
Stream size : 300 KiB (8%)
Title : Core Media Audio
Encoded date : UTC 2011-01-17 12:39:04
Tagged date : UTC 2011-01-17 12:39:14

cel jest taki żeby filmik był umieszczony na stronie i strumieniowo odtwarzany przez playera flashowego
MFrost jest offline   Odpowiedz cytując ten post
Stary 03.05.2011, 21:33   #7
Placio74
VideoAudio
 
Avatar użytkownika Placio74
 
Data rejestracji: 10.04.2005
Lokalizacja: Elbląg
Posty: 218
Placio74 niedługo stanie się sławny ;) <50 - 149 pkt>
Zmiana kontenera za pomocą FFmpeg (z linii komend).
Kod:
ffmpeg -i nazwa_pliku.mov -vcodec copy -acodec copy nazwa_pliku.flv
Można także zmienić kontener na MP4 - ten również jest obsługiwany przez Adobe Flash Player (nie jestem pewien czy nie 'pociągnąłby' od razu tego pliku MOV).
__________________
VideoAudio.pl - Serwis o technologii wideo & audio
Placio74 jest offline   Odpowiedz cytując ten post
Stary 05.05.2011, 12:03   #8
MFrost
Bywalec
 
Data rejestracji: 25.10.2005
Posty: 34
MFrost w tym momencie nie ma Reputacji dodatnich ani ujemnych <0  pkt>
ok zaraz pobrobuje, a jak najszybszym sposobem wywalić całkowicie z tego pliku mov dźwięk?
MFrost jest offline   Odpowiedz cytując ten post
Stary 05.05.2011, 12:29   #9
Placio74
VideoAudio
 
Avatar użytkownika Placio74
 
Data rejestracji: 10.04.2005
Lokalizacja: Elbląg
Posty: 218
Placio74 niedługo stanie się sławny ;) <50 - 149 pkt>
Kod:
ffmpeg -i nazwa_pliku.mov -vcodec copy -an nazwa_pliku.flv
__________________
VideoAudio.pl - Serwis o technologii wideo & audio
Placio74 jest offline   Odpowiedz cytując ten post
Stary 07.05.2011, 00:33   #10
MFrost
Bywalec
 
Data rejestracji: 25.10.2005
Posty: 34
MFrost w tym momencie nie ma Reputacji dodatnich ani ujemnych <0  pkt>
dzięki wielkie
MFrost jest offline   Odpowiedz cytując ten post
Odpowiedz na post

Tagi
freemake, konwersja, mov do flv

Opcje związane z dyskusją
Tryby wyświetlania Oceń tę dyskusję
Oceń tę dyskusję:

Twoje uprawnienia:
Nie możesz rozpoczynać nowych tematów
Nie możesz odpowiadać w tematach
Nie możesz umieszczać załączników
Nie możesz edytować swoich postów

BB codeWłączone
EmotikonkiWłączone
Kody [IMG]Włączone
Kody HTML są Wyłączone

Teleport

Podobne dyskusje
Dyskusja Autor Forum Odpow. Ostatni Post
Jak utworzyć z flv lub mpg strukturę DVD-Video bizon3 DVD-Video 3 07.07.2010 10:27
Konwersja FLV na AVI Stecush123 DivX, Xvid, Matroska i inne 7 24.12.2007 18:04
Konwersja avi na mov mencoderem lechoo1105 DivX, Xvid, Matroska i inne 0 19.02.2007 17:41
Konwersja mov na avi wild Fotografia 5 16.10.2005 16:01
konwersja z formatu mov daniels DVD-Video 1 12.11.2004 18:15


Wszystkie czasy w strefie CET. Aktualna godzina: 15:21.


Powered by vBulletin® Version 3.8.11
Copyright ©2000 - 2020, vBulletin Solutions Inc.